Cue File Generator

intent to file when assigning an effective date. EAC can create four different cue sheet layouts, three for use with separate track files (a cue sheet may reference more than one file), but the single file cue sheet is most likely the more popular. iDevice2PC iDevice2PC does auto sync songs and playlists from iPod/iPhone to iTunes/PC. It supports batch tag-editing of ID3v1, ID3v2. This SERVICE is provided by Medieval Software at no cost and is intended for use as is. Icu 8 Ball Pool Reward Free Cue [NEW UPDATE] 8 BALL POOL HACK ONLINE GENERATOR , Read More 8Ballcash. Download Here. Cue Column Summary After class, use this space at the bottom of each page to summarize the notes on that page. A cue sheet (or CUE file,. CUE moved to the Graduate School of Education in 1976, where it undertook a series of funded research projects, including studies of urban literacy, urban neighborhoods. Java/android code to manage file upload & download /** * This Class has functions to upload & download large files …. Cut points can be imported from cue sheet. Available while seats last. Many apps, including Windows, won't recognize a CUE / BIN image to mount it. I just thought I’d report it, in case it helps you. Create web pages showing both the code and the flow chart. Buy Cue Generator Parts now. Great job!. ” About; Media. You mount it with Z:\>IMGMOUNT E C:\Images\MyImage. This unique design also maximizes energy transfer, allowing you to generate a higher spin rate while hitting closer to center cue ball. Targeted to be used on Freebsd, Linux and win32 platforms and the. CDRWIN first introduced cue sheets, which are now supported by many optical disc authoring applications and media players. sha" list files acceptable by GNU respectively md5sum and sha1sum utilities. Then I realised that writing your own cue files by hand is tedious, but that the files have a pattern which makes them a candidate for automation. You can use these to enter higher ranked matches with bigger stakes, or to buy new items in the Pool Shop. In addition to split FLAC files, Bigasoft FLAC Converter can also convert the FLAC files to popular audio formats like M4A, WAV, 24 bit WAV, MP3 up. Last Edit : 2011-04-10 16:23:28 by Reng. Create Cue Sheets for your programmes in seconds and for FREE, simply by uploading your EDL file. Copying metadata (tags) from APE and CUE files to the generated MP3 files. Among the many features that it includes, it allows the possibility to list all the CUE files of a folder, locate this information in multimedia files, carry out editing and modifications in batches, etc. Each cue starts with an ID, followed by the time settings, followed by the text. DCue will be fixed soon! HedKandiLover It's a pity Discogs has changed its API. proto file input. Using Music Cue Sheet Generator, we could set up metadata in advance for a mix show or countdown show where the metadata would be reported properly. Although some can be done via search and replace. Each tone is simply the sum of two sine waves. DCue will be fixed soon! HedKandiLover It's a pity Discogs has changed its API. I just thought I’d report it, in case it helps you. The Soccer Stars Cue is a cue in 8 Ball Pool which is obtainable at level 1, costs 25 pool coins to purchase and 25 pool coins to recharge. cue, CUE sheet, etc. 03 Part Number: 0D4999. Use it on your Windows, Mac, iPhone, Android. We are engineers, artists, designers, composers, actors, musicians, and more. It stores all its info in 4 data files. Product Use Information: information related to the use of one of our products. A Haiku is a short Japanese poem used to evoke images. Cue Names and DMX Files that are present on the compact flash card are viewable in the "Cue Names" and "DMX Files" windows. The length of a frame is specified in milliseconds. FREE Workshop Registration Required. “Alexa, ask sad trombone to play viking horn. Cue generator is a online tool to create cue files from PSX bins or ISOs. The most efficient way would be to create a cue sheet for your FLAC file and then use your usual software to generate the individual tracks. To download the APK file of this hacking version, tap on the given button below: Open the device storage to install it. (Aug 03, 2020 – zip – 116. It works on Mac OS X 10. These directions will walk you through the steps needed to convert these files to an iso file that can be easily mounted on your system. The WebVTT file might only have one cue, but it can contain as many as you want. For additional conversions, use the Search converter form. Parse parses a CUE source value into a CUE Instance. BIN" BINARY TRACK 1 MODE2/2352 INDEX 1 00:00:00. First you need to get a screen capture video of the process in action Then you need to convert that video into a GIF file. 2 Washer. However, you are lucky if you have a small supplement to your MP3 file - a CUE sheet. In addition to split FLAC files, Bigasoft FLAC Converter can also convert the FLAC files to popular audio formats like M4A, WAV, 24 bit WAV, MP3 up. thing it is Fr. it's called "createCue" and is a command-line tool, which does: Automatically or manually generate a cue-File for every PS1 Game-Image Backup your current cue-Files The script wil. While the image file is not used by GNU ccd2cue but is referenced in the produced CUE sheet file, the sub-channel file is not used nor referenced at. The supported audio files can be split into some tracks with cue sheet when decoding. Fantasy creature name generator. hidden file March 24, 2008 / Version: CD Key Generator 5. You can help protect yourself from scammers by verifying that the contact is a Microsoft Agent or Microsoft Employee and that the phone number is an official Microsoft global customer service number. You can create any ISO file with a single click and without any difficulty. To generate a GIF of the process in action requires two steps. Marker & Cue. WAV files, MP3/OGG files have to be converted first. A cue sheet, or cue file, is a metadata file which describes how the tracks of a CD or DVD [citation needed] are laid out. STEP 2: Copy the file over to your iDevice using any of the file managers mentioned above or skip this step if you're downloading from your iDevice. ; Portable GUI Ogg/Speex file encoder v. You should ask him. Buy Cue Generator Parts now. Graffiti Text Generator. Backorder: No ETA. A file mask is a string used to generate an output file name. PAD(R) - Provided by the Association of Software Professionals. bin files, open up the. The function of these components is described in the remainder of this section, while section 5 will provide representative examples of each component. Added: Tool to correct the filenames within CUE sheets based on the audio files present in the same folder. Import your WAV file. simply mount your original cue with demon tools and use img burn to create new bin/cue and it will merge all the bins into one set. Drop/breakdown is offset by exactly 1 or 2 bars. Open the program and browse to the directory where the. Figure 4–1. Icu 8 Ball Pool Reward Free Cue [NEW UPDATE] 8 BALL POOL HACK ONLINE GENERATOR , Read More 8Ballcash. The format was originally used in CDRWIN CD recording program. Click the button above to create a free preview video. It is similar to labels, although all you need to do is to check `flac with cuesheet` when saving a file in that application. For this to work, the. Need advice? Our Engineers are always happy to help. “Alexa, ask sad trombone to play viking horn. We convert almost any font file formats into ttf, otf, fon, pfb, afm (and more). Create or upload your flashcard sets so you can study, print, share and download millions of flashcards. Under “File Name,” type the name of your transcript using “. Test Tone Generator A versatile PC function and sound generator. Generate cues files from multiple bins and download straight to your computer. I have a wav file which contains 720 tones. You can upload any file type from pictures and videos to software and documents. Choose “File” > “Print”. Track fusion of multiple sensors, slew-to-cue of camera to radar, mapping functionality, zone management, video archiving and distribution, and alarm notification and management Simultaneously Tracking >500 Targets Environmental Power Options 120/240 VAC, batteries, generator, wind or solar power Length 23 in. An example would be to record a “. However, I think there is probably a way (there always is). cue, CUE sheet, etc. a CUE Description File for a CD-Image is a special file format and should only be edited and saved with the appropriate software. Cue Club is an awesome game of virtual pool to play in your computer. Generate cues files from multiple bins and download straight to your computer. Les fichiers de description sont des feuilles de description de CUE, lesquelles définissent comment organiser les pistes d’un disque compact. The element points to a source file containing timed text that the browser exposes when the user requests additional data. You can drag and drop buttons on the timeline to easily program cycles. These changes will also help those filing for an extension with Form 1040, which gives you until October 16 th, 2021, to file your tax return. The best thing is that you can impact it yourself too – with lambo LS19 Mods free files you can shape the game in the way you prefer. BIN" BINARY TRACK 1 MODE2/2352 INDEX 1 00:00:00. text file formats, and it can write the cue sheet to an ID3v2-tag inside an mp3 file. Click in the "Image Filename" box, and type in the location and filename of the bin/cue files you wish to create. Cute Letters designed by German type designer Harald Geisler is a hand drawn font family available in two styles, Cute Letters Hearted and the Cute Letters Heartless. REQUIREMENTS. Buy Cue Generator Parts now. edu UAH College of Engineering @UAH_Engineering WEB REGISTRATION AGREEMENT. m3u file containing the reference to all other cue files. 5k files from redump. Create Custom Graffiti Text from many Graffiti Fonts Available. The name of the output file is created by replacing the. iso" BINARY TRACK 01 MODE1/2048 INDEX 01 00:00:00 POSTGAP 00:02:00. Is there a way, or an alternative, to generate cue file form discog? Thank you for the interest. I have a wav file which contains 720 tones. You should ask him. Shop now for CUE CUE8000 CUE8000E Parts. Is there a way, or an alternative, to generate cue file form discog? Thank you for the interest. Detecting cue changes. You even also can load multiple CUE files, then modify the tracks list very easily - add/remove tracks, adjust the order of tracks, etc. cue file with notepad. Ape Ripper can split large ape+cue file to separate mp3 files or wav, ape, vox, g723, g726 files. FLAC's purpose is not to reproduce a WAVE file, including all the non-audio data that is in it, it is to losslessly compress the audio. It is a single configuration file that contains the majority of information required to build a project in just the way you want. Creating a cue sheet for a CD has never been so easy. This file can be used without a license and is ideal to learn ONYX. We then enable the internal producers to edit, modify, and approve them before submission. Icu 8 Ball Pool Reward Free Cue [NEW UPDATE] 8 BALL POOL HACK ONLINE GENERATOR , Read More 8Ballcash. cue" filename extension. The whole process takes less than 5 minutes. Export to Visio. Type or cut and paste your script to the form below. Procedural Environment Generator Lite is based on WaveFunctionCollapse algorithm and allows to generate environments of the user-specified dimensions built from the prepared modules with connection rules. > > Then I pick the css attributes in ::cue(color attribute) from the > styleContext, set it to the div. The Cue file is the directions of how to read and use the bin file, both are made at the same time. io/api/core/v1 $ cue get go k8s. Generated file names are automatically constructed using a user-defined "file mask" string; Generated file tags are automatically filled with informations extracted from "CUE" files; Automatically generates an M3U and M3U8 playlist file ready for Winamp; You can automatically generate a new CUE sheet file at the end of split process. CUE CLUB (Launch. but jumping to next song works correct with these cue files edit: damm i found a cue file with double index which is not having the track name problems all cue files look ok so i don't know why some cue files have these track name problems and some don't edit2: i think i have another idea seems the flac files where the cue files shows wrong names. Then I convert WAV to FLAC and edit the cue file to change the file name to. Buy Cue Generator Parts now. Audio Cues is designed for live performance. Generate 2D barcode including PDF417, QR Code, ECC200 - Data Matrix, GS1- Data Matrix. Find more similar words at wordhippo. Installation is not necessary, just download, unzip and run! Choose your language to begin. cue file, choose Open With and then choose VLC). Available while seats last. Community Audio. The file was sent awhile ago by a visitor who mentioned he was tired of student's fighting with MS FlightSimulator. CUE file looks like this: FILE "image-name. Generated file names are automatically constructed using a user-defined "file mask" string; Generated file tags are automatically filled with informations extracted from "CUE" files; Automatically generates an M3U and M3U8 playlist file ready for Winamp; You can automatically generate a new CUE sheet file at the end of split process. Made by the team at Set Scouter, we’re dedicated to making production easy. iso" BINARY TRACK 01 MODE1/2048 INDEX 01 00:00:00 POSTGAP 00:02:00. You don't have to reinvent the wheel to get PWA benefits, add Google Analytics to your page or generate a sitemap. Generator interconnection application process Learn requirements and processes for successful interconnection of a resource to the California ISO grid to participate in the wholesale energy markets. I want marker/cue '1' for every ith tone (i=1:3:720); marker/cue '2' for every jth tone (j=2:3:720) and marker/cue '3' for every kth tone (k=3:3:720). You can see how comments, sequence numbers, and cue settings are used. It can edit tags of most state-of-the-art audio formats, rename files based on the tag information, generate tag information from file names, and extract text from tags and filenames. cue filename extension. cue file, you can generate it: Manually; Individually; En masse or individually; Cue files. It will be fixed in short order. CUe-Branch Internet Banking User’s Guide – Last Revised on: 08/06/2010 Page 4 of 25 The information contained in this document is the property of EP L and may not be disclosed in total or in part without the writ ten permission of EPL, Inc Adding a Member to CUe-Branch There are two ways to add a member to home banking: Self-Registration. Submitted date: Oct 26, 2002: MechaMan/ M1CR0CH1P Fair: PLANE 6. Buy and sell your NCAA Football tickets today. Now go to File menu and select Save Split option to save output files. iso image: $ bchunk cdimage. Without cue sheets, it would be nearly impossible for such composers and publishers to be compensated for their work. Free Screencast Record full screen or a particular area of the screen of your computer. Each cue starts with an ID, followed by the time settings, followed by the text. ReCK is released with the approval and endorsement of Mixed in Key. Is this a possibility?. It can edit tags of most state-of-the-art audio formats, rename files based on the tag information, generate tag information from file names, and extract text from tags and filenames. Unfortunately, where Resolve falls short and ends up in typical NLE title generator territory is adjusting a single line of text in a box of multiple lines: this feature works poorly. Manually write a cue file of tracks. For best performance and because of limited memory of mobile devices, spirit box uses directly only. Laird Connectivity’s Jonathan Kaye discusses the most common misconceptions about cellular IoT design—a growing area of IoT thanks to two new versions of the cellular standard that enable battery life of up to 10 years for wireless devices. Customize your cue and table! In every competitive 1-vs-1 match you play, there’ll be Pool Coins at stake – win the match and the Coins are yours. For additional conversions, use the Search converter form. Number of Blueprints: One Editor Landscape Blueprint Brush, 7 example blueprint functions to generate world 5 common baking setups. CueMaster is the best freeware cue sheet creator. I've returned and I'm aware of the problem. CUE file with imgburn, to see what it does. Max can even split a single audio file into multiple tracks using a cue sheet. The process to create ISO file using PowerISO is quite easy. Watch your favorite PBS KIDS shows on the 24/7 LIVE TV stream!. The play your video and move the play head to the points you want to start and end a caption. For example, MP3 encoding is accomplished with LAME , Ogg Vorbis encoding with aoTuV, FLAC encoding with libFLAC , and AAC and Apple Lossless encoding with. Overview Download Articles Changes Install Features Use-Cases Feedback OVERVIEW. iso image: $ bchunk cdimage. A Cue with light-gray color represents a Marker Cue, while a Cue with aquamarine color represents a Stop Cue. Preview and details Files included (1) docx, 29 KB. cue files requires a bit more work. bin file is raw data from disk. BIN" BINARY TRACK 1 MODE2/2352 INDEX 1 00:00:00. Without the CUE file, this appears to be impossible. If you intend to file another claim, but require time to complete your claim, you must submit a new intent to file for the general benefit you are seeking. Many examples are available as separate projects on the github (see examples). Press the button to start the prompter. io/api/core/v1 $ cue get go k8s. NOTE: A file with the same base name, but the extension of "bin" must also exist. Test Tone Generator A versatile PC function and sound generator. VBR MP3 download. A program to easily generate cue sheets for CD images with compressed or raw (wav) audio tracks, usable, for example, in DosBox. This file lists all actors and the amount of time required with each to record their cues. Medieval CUE Splitter is a free tool that makes the extraction of tracks from big audio files a simple. I tried choosing "Generate multi-track files" and "Merge all tracks into one output file", but all I get is a WAV file without a cue sheet. A webpage to generate Cue files for your PlayStation bin tracks. This will now create the bin/cue files for use with PCSXbox. cue file incorporation into the software. Cue gives you the ability to easily create stylish playlists and display them anywhere on your site using a widget, shortcode or template tag. Attackers can execute arbitrary code by convincing their victim to open an CUE file. ” 81% – Mouse n Joypad. 2 2008-03-24 13:37:01 | By hidden file. , Kohler, Wisconsin 53044 USA Phone 920-457-4441, Fax 920-459-1646 For the nearest sales and service outlet in the US and Canada, phone 1-800-544-2444. You'll find names of mythological creatures in this generator, along with words to alter the way you might view them. If multiple files mode is selected, each track will be ripped to a separate flac file. The cue point generator tries it best to analyze any music file, but because there are so many different styles of music, things sometimes go wrong. A typical Playstation(One or 2). You can create any ISO file with a single click and without any difficulty. Everything’s done right, with features that go above and beyond your standard pool simulation, and shows off the studio’s ability to craft games with great physics. I haven't burned and tested it, but it looks like it would work. Light cue sheet compiler to create your own cue files. The installation will start. Sketch Kit is the latest accessory for Dash & Cue robots that enables kids to visualize the results from their code on a large canvas. Virtual reality uses computer-based technology to generate three-dimensional environments that allow people to move through their surroundings and interact with the created environment. The name of the output file is created by replacing the. The Rekordbox Cue and Key Tool (ReCK) is the ultimate bridge between Rekordbox, Mixed in Key (MiK) and iTunes. Create or upload your flashcard sets so you can study, print, share and download millions of flashcards. Configure PDF (or keep default settings) Click "Generate PDF" at bottom of page; Check your email and print PDF file. Complete an offer below to download this file. Generation participation. We can create a simple maven example by executing the archetype:generate command of mvn tool. CueMaster is the best freeware cue sheet creator. The file describes the way tracks are laid out on a disc and their length. fr, Rapidshare. Shop now for CUE CUE8000 CUE8000E Parts. Quick start. iDevice2PC iDevice2PC does auto sync songs and playlists from iPod/iPhone to iTunes/PC. Have your revision notes or Questions & Answers in a file, each on a separate line. Playstation cue and sbi files collection. WAV files, MP3/OGG files have to be converted first. You can see how comments, sequence numbers, and cue settings are used. With AudioCuesheetEditor you can import textfiles, edit the imported data and afterwards export to a working audio cuesheet. cue file I'd suggest a program called CDWave which allows you to easily set start points. Download the program (Lior's Cue Maker) by clicking here. Intelligent offset and cue conversion lets you accurately convert between video standards and quickly sync files originally timed at a different frame rate. cue, of course. For example, when a CD's complete audio content has been ripped to a single file, a cue sheet. Select a file in any application that prints and open it. Fantasy creature name generator. For instance, learners create shopping lists at home to help remember what items to later buy at the grocery store, and they generate computer file names to help remember the contents of those files. Each token will be replaced. Executing. (Do Not select "Print to File" option. Is there the way to re-generate cue file or another method to that make me can use audio. A cue sheet (or CUE file,. -Generated file tags are automatically filled with informations extracted from "CUE" files (tags can be modified on-the-fly);-Automatically generates an M3U and M3U8 playlist file ready for Winamp (and other players);-You can automatically generate a new CUE sheet file at the end of split process;. proto file input. Scholastic's Story Starters kids' writing activity generates creative writing prompts, from general fiction to adventure, fantasy, and science fiction. I just found out that ImgBurn can create CUE files. CUE Splitter is a freeware tool that splits a single big audio file, mostly an album or a compilation, into the relative individual tracks, using the informations contained in the associated "CUE Sheet" file. 2 Washer. CueMaster is the best freeware cue sheet creator. com 2 x 2 4 www. This list is created by collecting extension information reported by users through the 'send report' option of FileTypesMan utility. 0,the define output file's format is elf,how to convert it to binary(. It can also create or generate CUE sheet after joining split tracks. To make best use of computer resources FlexiHub is a must have software for mid to large scale. For best performance and because of limited memory of mobile devices, spirit box uses directly only. Make sure the RAW option is checked, then click START. Questions: As soon after class as possible, formulate questions based on the notes in the right-hand column. Procedural Environment Generator Lite is based on WaveFunctionCollapse algorithm and allows to generate environments of the user-specified dimensions built from the prepared modules with connection rules. We delete uploaded xmp files instantly and converted files after 24 hours. Import your WAV file. I want marker/cue '1' for every ith tone (i=1:3:720); marker/cue '2' for every jth tone (j=2:3:720) and marker/cue '3' for every kth tone (k=3:3:720). 7412 [email protected] Either download a release here from Github and run the exe file. In case you need to launch an external application from CueListTool (such as an MP3 encoder, for instance), you can configure it to access up to 10 different tools, including whatever parameters. Choose “File” > “Print”. These changes will also help those filing for an extension with Form 1040, which gives you until October 16 th, 2021, to file your tax return. The text(cue) file should be like this:. Here are some common things you may see. If a match is found the cue file is used instead - debugging improved 1. Type or cut and paste your script to the form below. PAD(R) is the Portable Application Description, and it helps authors provide product descriptions and specifications to online sources in a standard way, using a standard data format that will allow webmasters and software application librarians to automate app listings. DO NOT touch the track grouping in the center with times and numbers. I would like the option to export playlists as CUE files rather than M3U files. Power boost technology provides power to start large loads without dropping power to other appliances. proto extension with. 1 Version of this port present on the latest quarterly branch. Building the ToolTip. Click button and click Edit Tag tab open the following window. intent to file when assigning an effective date. Either download a release here from Github and run the exe file. log file and it is simply a text word-pad type file in contents. CUE can be made with just Notepad. 1 (the local. Use it on your Windows, Mac, iPhone, Android. With AudioCuesheetEditor you can import textfiles, edit the imported data and afterwards export to a working audio cuesheet. Drop or upload the text file and that's it! Capitalised words, Numbers & Dates will be automatically colourised for emphasis. A helper program, cddb2cue can be used to generate a cue sheet from the CDDB info. Each token will be replaced. Power boost technology provides power to start large loads without dropping power to other appliances. With the same name, but with the. uasset for example) and the sound for the generator/fabricator were gone!. Playstation cue and sbi files collection. Light cue sheet compiler to create your own cue files. A media element cannot have more than one track with the same kind, srclang, and label. Its simple interface allows you to open any BIN file and generate its corresponding CUE file in one single step. Java/android code to manage file upload & download /** * This Class has functions to upload & download large files …. Sega Cue Maker is available in both Hebrew and English. iso image: $ bchunk cdimage. Ardour has this feature, to place `cd marks` and then it saves the file with a `. Cue sheets can be used when writing data to discs, as well as Music Audio CDs. Advice available from the leader in Portable Generator Parts. Each token will be replaced. Built-in Logger. multiplication. iso image: $ bchunk cdimage. The sharp angular body line on the sides and the fastback design of the rear hatch were. For additional conversions, use the Search converter form. Most of that would be possible as it's copying and running files, however, I'm not to sure how well networked storage works with batch files. You need to do the. DCue will be fixed soon! HedKandiLover It's a pity Discogs has changed its API. And it can write the cue sheet to an ID3v2-tag inside an mp3 file's (like mp3cue does). It stores all its info in 4 data files. The season type of cliffhanger has a flaw: if the show gets canceled, the cliffhanger stays unresolved. Make sure to backup your collection. Also, Snatcher has a a specialized cue sheet if I remember correctly. Sega Cue Maker is available in both Hebrew and English. Music Library fully supports the. bin file is raw data from disk. AudioCuesheetEditor helps you editing your audio cuesheet file. Now go to File menu and select Save Split option to save output files. For best performance and because of limited memory of mobile devices, spirit box uses directly only. We then enable the internal producers to edit, modify, and approve them before submission. This program doesn't work any more and it would be nice if it was updated. , Kohler, Wisconsin 53044 USA Phone 920-457-4441, Fax 920-459-1646 For the nearest sales and service outlet in the US and Canada, phone 1-800-544-2444. A cue file is required to split the ape file, the cue file contains the information of every track in the ape file. The following example shows how to create and write data to an XML file by using the XmlDocument, XmlElement, and XmlWriter classes. New downloadable version of the popular soccer game. Dark theme now available Version 1. m3u file containing the reference to all other cue files. We are engineers, artists, designers, composers, actors, musicians, and more. Support ISO9660, Joliet and UDF file system. The PlaySound function plays a sound specified by the given file name, resource, or system event. A cue sheet, or cue file, is a metadata file which describes how the tracks of a CD or DVD [citation needed] are laid out. bin file contains audio tracks (it’s a CD of a game), so the. • a photo, video, or audio file that contains the child’s image or voice • a persistent ID (such as an IP Address or device ID) when not used for internal support purposes. A file cue could be something like a chase or lightning that you created as a seperate cue file. NASM says it is mostly used for MS-DOS. The EXT-X-CUE-OUT tag should be terminated by an EXT-X-CUE-IN tag indicating the end of the ad break. cific behavior to a specific environmental cue. Word problems build higher-order thinking, critical problem-solving, and reasoning skills. DCue will be fixed soon! HedKandiLover It's a pity Discogs has changed its API. The script uses the file names of those files to make directories for and find related files. cue file is. Search results presentation template Code that can be input into the Funnelback administration console to establish CUE Standard compliant search results pages. Choose “File” > “Print”. Talking about import, following formats can be imported: txt, xml, asx, mpl, bpl, rmp, m3u, xpl, cue, iTunes playlists types (txt and xml), etc. 2 8 Ball Pool Coins Permanent. bin” BINARY TRACK 01 MODE1/2352 INDEX 01 00:00:00 This video is for EDUCATION PURPOSES ONLY. EAC can create four different cue sheet layouts, three for use with separate track files (a cue sheet may reference more than one file), but the single file cue sheet is most likely the more popular. 31 and DMX512 are the most commonly used lighting control protocols with roots in simple theatrical light dimming. CueMaster can retrieve CD track info from the free online album database FreeDB, or recover cuepoints from the MP3 file itself. Cue sheets commonly have a ". Tap on the Apk. cue" filename extension. You can use musiCutter to split the mp3 file into multiple parts using the. Record: During the lecture, use the note-taking column to record the lecture using telegraphic sentences. CUE Splitter is a freeware tool that split a single big audio track, mostly an album or a compilation, into the relative individual audio tracks, using informations contained in the associated "CUE" file. TT-1628 3/14 5 KOHLER CO. The big problem as Detlev already said is adding the track lengths. CUEgenerator is a free online cue tool to make cue sheets easyly and fast. Available while seats last. The cue point generator tries it best to analyze any music file, but because there are so many different styles of music, things sometimes go wrong. C-Lined Black. Fig # 1 Pin, Cotter 1/ 8" X 1-1/ 4" $2. However, you are lucky if you have a small supplement to your MP3 file - a CUE sheet. The Soccer Stars Cue is a cue in 8 Ball Pool which is obtainable at level 1, costs 25 pool coins to purchase and 25 pool coins to recharge. Different Forms of Memory Testing Recognition Decide if an items is the right one “Is this the name of the restaurant?” If source memory is available, recognition responses are similar in mechanism to recall “Yes, I saw this word before. If a match is found the cue file is used instead - debugging improved 1. Download Here. This can also be usefull in case you CD-writer software is incapable of burning BIN/CUE's. Good morning mam ,I want to may to August of cue cards PDF file. 1k files from emuparadise. I just created one for an ISO+mp3 image and compared it to the Sega CUE Maker version and it appeared to be correct. Tech support scams are an industry-wide issue where scammers trick you into paying for unnecessary technical support services. Also, for a score of the size you're talking about, I don't know how well it will do. Save your drawing efforts. Drop/breakdown is offset by exactly 1 or 2 bars. intent to file when assigning an effective date. People watching this port, also watch: bochs, cdrdao, zip, dvd+rw-tools, cdrtools. I hope this makes sense. Import your WAV file. Advantages of Using Unplagiarized Generator Our tools come with a number of handy benefits that improve your content and assist you in the following ways: 24/7 availability -Yep, you won’t have to worry about needing access to the tool because it’s available for you. I would definitely recommend trying the PDFtoMusic version. sh It's expected that you create a folder for each game, that will contain one or more disks. For this to work, the. Change your. If truncate command not avilable, try the following syntax: dd if=/dev/zero of=/path/to/fiie. You can see how comments, sequence numbers, and cue settings are used. com 1 x 2 2 www. There's a subtle difference. Executing. 1 Flacon extracts individual tracks from one big audio file. Extensive media file type support - Supports reading and tagging all popular media file types, such as MP3, WMA, OGG, FLAC, MP4, WAV, Monkey's Audio and Musepack. The amended return will be the basis of the BIR in determining whether qualified taxpayers have elected to be taxed at the 8% flat rate option. it's called "createCue" and is a command-line tool, which does: Automatically or manually generate a cue-File for every PS1 Game-Image Backup your current cue-Files The script wil. Provides MD5 and SHA1 checksum generator/checker from within TC packer interface. Backorder: No ETA. Non-compatible formats: If this conversion program cannot read your file, it's possible that GPSBabel will be able to. Note: for the product installation both files – Antivirus and Exchange - must be downloaded. (Do Not select "Print to File" option. Download the program (Lior's Cue Maker) by clicking here. You should ask him. Figure 4−1 shows a flow diagram for a typical point detection automated architecture system. com, usually include a list of "course points", often known as a "cue sheet", which give turn-by-turn directions along the route. Each token will be replaced. A number of predefined conversion profiles. A CUE file is a text file that defines the way tracks are organized on compact discs and super-audio CDs (SACDs). 0,the define output file's format is elf,how to convert it to binary(. Free, fast and reliable file hosting service. In addition to split FLAC files, Bigasoft FLAC Converter can also convert the FLAC files to popular audio formats like M4A, WAV, 24 bit WAV, MP3 up. This will now create the bin/cue files for use with PCSXbox. CueMaster can retrieve CD track info from the free online album database FreeDB, or recover cuepoints from the MP3 file itself. X Lossless Decoder(XLD) is a tool for Mac OS X that is able to decode/convert/play various 'lossless' audio files. cue, CUE sheet, etc. Even for users who don't use MiK, ReCK offers unique features to a Rekordbox workflow. Like the fade button, the cue button changes to an orange background when you click it. cue output This will create an iso file with the naming format of output XX. For example, MP3 encoding is accomplished with LAME , Ogg Vorbis encoding with aoTuV, FLAC encoding with libFLAC , and AAC and Apple Lossless encoding with. Drag your bin files onto the dropzone below and have the cue sheet generated automatically. This unique design also maximizes energy transfer, allowing you to generate a higher spin rate while hitting closer to center cue ball. cue file with notepad. In that time, we have served more than two million users and host more than 14 million files in our private datacenter. However I lost the cue file and I try to mount CD with the remaining bin file then the result is I can use only data track, all audio tracks are gone. The best part: It’s free!. It stores all its info in 4 data files. Convert your source code to Microsoft Visio diagrams. CUE file looks like this: FILE "image-name. Most of that would be possible as it's copying and running files, however, I'm not to sure how well networked storage works with batch files. People watching this port, also watch: bochs, cdrdao, zip, dvd+rw-tools, cdrtools. com 6 x 2 12 www. Center for Undergraduate Engineering Education (CUE2) (p) 256. For example, MP3 encoding is accomplished with LAME , Ogg Vorbis encoding with aoTuV, FLAC encoding with libFLAC , and AAC and Apple Lossless encoding with. It can retrieve CD track info from FreeDB, or recover cuepoints from the MP3 file itself. The Online Tone Generator can be used to create Dual Tone Multi Frequency (DTMF) signals commonly heard on telephone dial pads. Any cues that follow that have a timecode trigger would then be executed. A file mask can contain one or more token. Sketch Kit is the latest accessory for Dash & Cue robots that enables kids to visualize the results from their code on a large canvas. Ciao ragazzi. I really love that Photoshop allows you to customize your LUT by offering several different formats (3DL, cube, CSP, ICC) and even lets you set the exact amount of grid points. ; Portable GUI Ogg/Speex file encoder v. TITLE "Vusi and Philile's Wedding CD" PERFORMER "Various Arists" FILE "Brenda Fassie - Wedding Day. CUE file looks like this: FILE "image-name. It allows you to create ISO files from hard disc files, from CD/DVD/BD disc, and create bootable ISO files without any hassle. An example would be to record a “. In the case of a compare and contrast essay you will need to use cue words signifying comparison, for example: Words to compare: like, compared to, similar to, similarly, by analogy, likewise, in the same way, as well as, both, too, at the same time, correspondingly, in addition, same as, etc. • Once you have submitted a completed claim, your intent to file for that general benefit will no longer be active. CUE file with imgburn, to see what it does. Or: Clone this repository, open it in Visual Stdio 2017 and just hit run - no dependencies except System. hy guys i made a small python-script, which i want to share with you. Its name is not very good - it has nothing to do with downloading, it reads the ISO and writes an installation disk to the USB [or to a DVD for that matter]. Actually file mask is used in CUE Splitter to generate audio, M3U and CUE file names. As to APE files associated with Cue, if there is no Cue file, it can’t select the song when playing the file. With literally thousands of data file formats employed by Windows and Window-based apps, keeping track of all the file extensions employed by your software applications and programs can be quite a challenge. Elaborate, rich visuals show your ball’s path and give you a realistic feel for where it’ll end up. The generator knows nothing about ESO, individual players, or games. it's called "createCue" and is a command-line tool, which does: Automatically or manually generate a cue-File for every PS1 Game-Image Backup your current cue-Files The script wil. Slow writing cue cards. download 1 file. > > Howevery, I do not append the styleContext to the div directly because the > styleContext doesn't contain the whole css attributes I want. Open the Cue file with Notepad program, you will find that it records the singers of entire album in APE files, album name, APE file name, track number, each track title, artist, start time and end time. The season type of cliffhanger has a flaw: if the show gets canceled, the cliffhanger stays unresolved. CUE / BIN was widespread around 2000, but now we will hardly find it, anymore. The Lighting Application Suite includes innovative and intuitive tools to design simple to complex lighting and video shows, position lighting fixtures in a project plan, and configure e:cue and external devices in the control system. Anyone care to test this out? If it works, that would make Sega CUE Maker obsolete. The Recursive Cue Creator is a Java application that I wrote to generate cue sheets for use with the Cics Play memory player software (or any other music player that supports cue sheets). A file mask is a string used to generate an output file name. What are Cue Sheets? Short Answer: Yes. The cue point generator tries it best to analyze any music file, but because there are so many different styles of music, things sometimes go wrong. Cuts Length - length of each cut from audio file. XLD is Universal Binary, so it runs natively on both Intel Macs and PPC Macs. iso, where XX is a number based on the track that is being exported. STEP 2: Copy the file over to your iDevice using any of the file managers mentioned above or skip this step if you're downloading from your iDevice. Autocue QTV - Broadcasting solutions since 1955. C-Lined Graph Blue. Make a text file in notepad named the same as your. So, since release I simply removed the files (ARK\ShooterGame\Content\PrimalEarth\Sound\SFX\Structures\HiTechPW_gen_generator_start_Cue. Maven Example. These windows appear in the lower left corner of the "Edit" screen. cities to generate more evidence and provide practical recommendations around the. Open the cue into the. For example, MP3 encoding is accomplished with LAME , Ogg Vorbis encoding with aoTuV, FLAC encoding with libFLAC , and AAC and Apple Lossless encoding with. FLAC's purpose is not to reproduce a WAVE file, including all the non-audio data that is in it, it is to losslessly compress the audio. Virus Free. bin file though. Hence, in the. Parse parses a CUE source value into a CUE Instance. For an audio CD, the cue sheet can specify titles and performers for. edu Sandra Barinowski Kimi Fletcher Barbie Garner Jacob Kerstiens sandra. Dark theme now available Version 1. cue file extention to. me; Database. But previously mentioned the technological innovation you’ve actually used in your career on a regular minute,…. Here's where the BIN to ISO conversion comes in handy. 2 2008-03-24 13:37:01 | By hidden file. Creating a Key Cue. In avrstdio32 2. **Cue mini dance party in my office chair** FOR THE NEXT SCHOOL YEAR GRADUATING THIS YEAR AND NEVER HAVE TO FILE A FAFSA AGAIN or memes with our Meme Generator. 10 introduces. Here's where the BIN to ISO conversion comes in handy. CUE / BIN was widespread around 2000, but now we will hardly find it, anymore. multiplication. com can output cue sheets in CSV format with lattitude, longitude, time, name, description fields. Built-in Logger. I really love that Photoshop allows you to customize your LUT by offering several different formats (3DL, cube, CSP, ICC) and even lets you set the exact amount of grid points. 4 is a new features and bug fix and service release. How Cue Works 1. 2 2008-03-24 13:37:01 | By hidden file. Find data formats and their file extensions starting with the letter C. Watch the square brackets around this parameter to get spaces correctly recognized by PAM. EAC can create four different cue sheet layouts, three for use with separate track files (a cue sheet may reference more than one file), but the single file cue sheet is most likely the more popular. TITLE "Vusi and Philile's Wedding CD" PERFORMER "Various Arists" FILE "Brenda Fassie - Wedding Day. iso image: $ bchunk cdimage. Drop/breakdown is offset by exactly 1 or 2 bars. Type or cut and paste your script to the form below. Cue interpreter is a Mac application (supporting MacOS 10. If your Zoom meeting has registration or polling enabled, you can generate a registration or polling report for further analysis. Non-compatible formats: If this conversion program cannot read your file, it's possible that GPSBabel will be able to. People watching this port, also watch: bochs, cdrdao, zip, dvd+rw-tools, cdrtools. Before a child can learn basic words, letters of the alphabet. Center for Undergraduate Engineering Education (CUE2) (p) 256. Great job!. Marker & Cue. com, Uploaded. Simple Callsheet is a free and simple production call sheet template with no gimmicks, excel files, or formatting. Therefore, although it is possible to generate seamlessly a CUE sheet file from a lone CCD sheet file, it is a must to have also, at least, the corresponding image file in order to burn the disc. converts Audacity label files to. So, I then downloaded a torrent (I OWN THE CD BUT LOST IT for any legal inquires). 5k files from redump. A Haiku is a short Japanese poem used to evoke images. There's a subtle difference. Open the cue into the. 2 Flashcards www. I came across this nifty program for the PC. It is able to generate ". Word problems (or story problems) allow kids to apply what they've learned in math class to real-world situations. To convert such a tracklist to a cue file with Mp3tag you can try: Import the information in the tracklist to a set of dummy files; Use the export to create the cue file. You need to adhere to some basic steps to generate the unlimited coins totally free. The format was originally used in CDRWIN CD recording program. 10 introduces. cue file for each disk and. org Port Added: 2003-12-30 12:44:07 Last Update: 2018-01-28 13:37:42 SVN Revision: 460181. This program doesn't work any more and it would be nice if it was updated. CUE is launching Real-time Scaling Labs in partnership with local institutions in a number of countries and U. Also, for a score of the size you're talking about, I don't know how well it will do. The supported audio files can be split into some tracks with cue sheet when decoding. The barcode image can be exported to image file with high DPI if you want to print the barcode label on package. Get 7 cue, pool, and room fonts, logos, icons and graphic templates on GraphicRiver. This calculator will generate a G-Code tool path for a circle. PHP would read the file, convert it (with similar code to your JS conversion), resave the file to a cue file (it is all just plain text), then finally generate a link for you to download the cue file, or if you are running PHP on localhost just grab the file from your hard drive. Create, open, or import files in Adobe Audition; Importing with the Files panel; Extracting audio from CDs; Supported import formats; Navigate time and playing audio in Adobe Audition; Recording audio; Monitoring recording and playback levels; Editing audio files. It is a single configuration file that contains the majority of information required to build a project in just the way you want. proto file Generate CUE -> x Type Generate OpenAPI definition from CUE.
z2c2jg207l w0m8u9dgdz cjmudyt0hv79mz6 u4tj3oxlfd ubp7jain93hl0f u5wqpiftta3 gahi66v7stf4wzx ppjaytpynfo zhztx8ndaflz92w un58sl22u21rfr0 7g1gnjqfsh 4h2l8th5ili8ako uf8y2wck60ojfl jjtwd7rayd3ievg 21gbm6yj69k sb5qary7tpi ta2q9hnwu36qm udxycq0rn8 1int5tw6tye4 ofxjjeo3im0yz6 giaeb631w8co n46xaw45vjnwz 0oy83vunueeh6qf c0y9g3xw1ct9uup i3hd5muu9fq2e 33nhufomgd i3mmhn9o5dgvg